开启辅助访问 天气预报 收藏本站

数字音乐论坛

 找回密码
 立即注册
快捷导航
查看: 769|回复: 18
打印 上一主题 下一主题

[群星《开天辟地》三菱MT 1A1[WAV+CUE]]

[复制链接]

签到天数: 337 天

[LV.8]以坛为家I

634

主题

999

帖子

3万

积分

论坛元老

Rank: 8Rank: 8

积分
31205
威望
5142
金币
15879
贡献
4043

发帖高手勋章

跳转到指定楼层
楼主
发表于 2018-10-28 18:50:35 | 只看该作者 回帖奖励 |倒序浏览 |阅读模式
CD: Various - 开天辟地(三菱MT 1A1)

01. 崔健 / 最后一枪    [0:04:20.57]
02. 吴小雲 / 一无所有    [0:03:21.20]
03. 孙国庆 / 黄土高坡    [0:04:05.60]
04. 胡月 / 别无选择    [0:04:26.45]
05. 王虹 / 错    [0:03:49.18]
06. 王迪 / 不是你的错    [0:04:12.70]
07. 王虹 / 血染的风彩    [0:04:33.72]
08. 刘欢 / 偶然相遇    [0:05:28.48]
09. 田震 / 最后的时刻    [0:04:43.30]
10. 群星 / 我们告诉世界    [0:04:45.15]
11. 艾静 / 信天游    [0:04:26.37]

游客,如果您要查看本帖隐藏内容请回复

Exact Audio Copy V1.0 beta 6 from 9. April 2015

EAC 抓取日志文件从16. 一月 2016, 18:26

Various / 开天辟地(三菱MT 1A1)

使用驱动器  :TEAC    CD-W540E   Adapter: 1  ID: 0

读取模式      : 可靠Secure
使用精确流     : 是
清空音频缓存    : 是
使用 C2 指示器 : 否

读取偏移校正:               : 686
读取 Lead-In 和 Lead-Out : 否
用静音填充抓取中丢失偏移的采样       : 是
去除首尾静音块               : 否
在CRC 计算中使用了空样本       : 是
已用接口                  : 已安装外部 ASPI 接口

所用输出模式: : 内部 WAV 函数
样本格式    : 44.100 Hz; 16 Bit; 立体声


已抓取 CD 的 TOC

     音轨 |    起始    |    长度    |  起始扇区  |  结束扇区  
    --------------------------------------------
      1 |  0:00.00 |  4:20.57 |      0 |  19556
      2 |  4:20.57 |  3:21.20 |  19557 |  34651
      3 |  7:42.02 |  4:05.60 |  34652 |  53086
      4 | 11:47.62 |  4:26.45 |  53087 |  73081
      5 | 16:14.32 |  3:49.18 |  73082 |  90274
      6 | 20:03.50 |  4:12.70 |  90275 | 109244
      7 | 24:16.45 |  4:33.72 | 109245 | 129791
      8 | 28:50.42 |  5:28.48 | 129792 | 154439
      9 | 34:19.15 |  4:43.30 | 154440 | 175694
     10 | 39:02.45 |  4:45.15 | 175695 | 197084
     11 | 43:47.60 |  4:26.37 | 197085 | 217071


范围状态及错误

已选择范围

     文件名 F:\Various - 开天辟地(三菱MT 1A1).wav

     峰值电平 100.0 %
     抓取速度 1.2 X
     范围质量 100.0 %
     复制 CRC 20891373
     复制成功

没有错误发生


AccurateRip 摘要

音轨  1  精确地校准抓取  3)  [6D7C6A5C]  (AR v2)
音轨  2  精确地校准抓取  3)  [54584C4B]  (AR v2)
音轨  3  精确地校准抓取  3)  [90D99EA2]  (AR v2)
音轨  4  精确地校准抓取  3)  [6F5B1EEF]  (AR v2)
音轨  5  精确地校准抓取  3)  [9B9E7B4E]  (AR v2)
音轨  6  精确地校准抓取  3)  [22471923]  (AR v2)
音轨  7  精确地校准抓取  3)  [9D11F8E5]  (AR v2)
音轨  8  精确地校准抓取  3)  [8536700B]  (AR v2)
音轨  9  精确地校准抓取  3)  [B3BB2FF2]  (AR v2)
音轨 10  精确地校准抓取  3)  [5359D440]  (AR v2)
音轨 11  精确地校准抓取  3)  [D06C179F]  (AR v2)

所有音轨精确校准抓取

状态报告结尾

---- CUETools DB Plugin V2.1.6

[CTDB TOCID: sXdpLQ7eDI7EYvtLmioVY.XTkiM-] database access error: 无法解析此远程名称: 'db.cuetools.net'


==== 记录校验日志 1965139CA0F17C1AC96EFF4A32B55C0DD99A2A156FAE5264ECF64DB8D6D423DC ====


评分

参与人数 1威望 +4 金币 +8 贡献 +4 收起 理由
WSAN + 4 + 8 + 4

查看全部评分


数字音乐论坛 - 论坛版权1、本主题所有言论和图片纯属会员个人意见,与本论坛立场无关
2、本站所有主题由该帖子作者发表,该帖子作者与数字音乐论坛享有帖子相关版权
3、其他单位或个人使用、转载或引用本文时必须同时征得该帖子作者和数字音乐论坛的同意
4、帖子作者须承担一切因本文发表而直接或间接导致的民事或刑事法律责任
5、本帖部分内容转载自其它媒体,但并不代表本站赞同其观点和对其真实性负责
6、如本帖侵犯到任何版权问题,请立即告知本站,本站将及时予与删除并致以最深的歉意
7、数字音乐论坛管理员和版主有权不事先通知发贴者而删除本文

我新发布了帖子《[李玲玉《甜甜甜》太平洋首版[WAV+CUE][324MB/百度]》,快来围观吧!
回复

使用道具 举报

签到天数: 523 天

[LV.9]以坛为家II

14

主题

911

帖子

2682

积分

注册会员

Rank: 2

积分
2682
威望
507
金币
679
贡献
78
沙发
发表于 2018-10-28 20:40:52 | 只看该作者
艾敬的信天游终于有CD版了  收藏了 不错的专辑
回复

使用道具 举报

签到天数: 211 天

[LV.7]常住居民III

12

主题

820

帖子

2149

积分

注册会员

Rank: 2

积分
2149
威望
633
金币
38
贡献
25
板凳
发表于 2018-10-28 22:46:55 | 只看该作者
谢谢分享,这些歌手几乎都是九十年代中国流行歌坛的中坚力量。
回复

使用道具 举报

签到天数: 370 天

[LV.9]以坛为家II

7

主题

1103

帖子

2860

积分

注册会员

Rank: 2

积分
2860
威望
800
金币
141
贡献
16
QQ
地板
发表于 2018-10-28 23:24:06 | 只看该作者
这些都是刚出道时的歌曲,值得回味。谢谢分享。
回复

使用道具 举报

签到天数: 525 天

[LV.9]以坛为家II

1

主题

1407

帖子

3179

积分

中级会员

Rank: 3Rank: 3

积分
3179
威望
858
金币
51
贡献
5
5#
发表于 2018-10-29 05:52:07 | 只看该作者
有几首没听过的歌曲,谢谢分享
回复

使用道具 举报

签到天数: 603 天

[LV.9]以坛为家II

1

主题

851

帖子

1433

积分

新手上路

Rank: 1

积分
1433
威望
243
金币
96
贡献
0
QQ
6#
发表于 2018-10-29 08:37:21 | 只看该作者
崔健最后一枪网络都下载不到了,谢谢好资源。
回复

使用道具 举报

签到天数: 552 天

[LV.9]以坛为家II

1

主题

790

帖子

1320

积分

新手上路

Rank: 1

积分
1320
威望
232
金币
66
贡献
0
7#
发表于 2018-10-29 13:24:46 | 只看该作者
谢谢分享 90年代的代表歌曲
回复

使用道具 举报

签到天数: 232 天

[LV.7]常住居民III

2

主题

557

帖子

1330

积分

新手上路

Rank: 1

积分
1330
威望
323
金币
127
贡献
0
8#
发表于 2018-10-29 16:46:09 | 只看该作者
这几位歌手当年都非常有名气,喜欢他们的歌曲,谢谢分享。
回复

使用道具 举报

签到天数: 142 天

[LV.7]常住居民III

1

主题

194

帖子

357

积分

新手上路

Rank: 1

积分
357
威望
51
金币
61
贡献
0
9#
发表于 2018-10-29 20:21:28 | 只看该作者
我们告诉世界,很高兴能找到这首歌。谢谢分享!!!
回复

使用道具 举报

签到天数: 51 天

[LV.5]常住居民I

1

主题

85

帖子

191

积分

新手上路

Rank: 1

积分
191
威望
32
金币
42
贡献
0
10#
发表于 2018-11-29 09:54:58 | 只看该作者
珍贵的是第一首歌《最后一枪》,当年《火烧岛》的片尾曲。
回复

使用道具 举报

您需要登录后才可以回帖 登录 | 立即注册

本版积分规则

Archiver|手机版|小黑屋|数字音乐论坛 ( 津ICP备09009336号-1 )

GMT+8, 2019-9-21 19:22 , Processed in 0.328125 second(s), 50 queries .

Powered by Discuz! X3.4

© 2008-2019 上网要文明 发言要理性 本站禁灌水

快速回复 返回顶部 返回列表