开启辅助访问 天气预报 收藏本站

数字音乐论坛

 找回密码
 立即注册
快捷导航
查看: 1029|回复: 14
打印 上一主题 下一主题

[太平洋-中国轻音乐Vol.7[创作篇]][WAV/539MB][百度]

[复制链接]

签到天数: 208 天

[LV.7]常住居民III

130

主题

366

帖子

3万

积分

贵宾

Rank: 7Rank: 7Rank: 7

积分
36855
威望
2485
金币
30250
贡献
1194

贵宾专用勋章

跳转到指定楼层
楼主
发表于 2018-3-6 14:02:25 | 只看该作者 回帖奖励 |倒序浏览 |阅读模式
本帖最后由 asen 于 2018-3-6 15:43 编辑







专辑:中国轻音乐Vol.7[创作篇]
编号:PCD-6194
演奏:上海交响乐团
出品:太平洋影音公司
转制:ASEN

试听:06.春风杨柳


曲目
01.梅花三弄    [0:04:52.49]
02.乐呵舞曲    [0:02:29.69]
03.在雨伞的下面    [0:03:10.03]
04.星期六的晚上    [0:02:49.46]
05.在光舞影    [0:03:04.55]
06.春风杨柳    [0:03:37.20]
07.跳吧跳吧    [0:03:18.03]
08.醉夜    [0:04:02.41]
09.一把菜籽    [0:03:43.38]
10.梦幻    [0:03:26.41]
11.嬉游    [0:02:38.65]
12.苗家舞曲    [0:02:56.25]
13.欢迎你朋友    [0:02:34.12]
14.细雨吟    [0:04:41.25]
15.浦江春色    [0:02:33.43]
16.回忆    [0:03:28.62]


游客,如果您要查看本帖隐藏内容请回复

密码.rar (99 Bytes, 下载次数: 25, 售价: 10 金币)

Exact Audio Copy V1.0 beta 4 from 7. December 2014

EAC 抓取日志文件从6. 三月 2018, 7:42

太平洋影音公司  asen 转制 / 中国轻音乐Vol.7[创作篇]

使用驱动器  :HL-DT-STDVD+-RW GSA-T21N   Adapter: 1  ID: 2

读取模式      : 可靠Secure
使用精确流     : 是
清空音频缓存    : 否
使用 C2 指示器 : 是

组合读写偏移校正:             : 0
读取 Lead-In 和 Lead-Out : 否
用静音填充抓取中丢失偏移的采样       : 是
去除首尾静音块               : 否
在CRC 计算中使用了空样本       : 是
已用接口                  : Win NT 及 2000 本地 Win32 接口

所用输出模式: : 内部 WAV 函数
样本格式    : 44.100 Hz; 16 Bit; 立体声


已抓取 CD 的 TOC

     音轨 |    起始    |    长度    |  起始扇区  |  结束扇区  
    --------------------------------------------
      1 |  0:00.00 |  4:52.49 |      0 |  21948
      2 |  4:52.49 |  2:29.69 |  21949 |  33192
      3 |  7:22.43 |  3:10.03 |  33193 |  47445
      4 | 10:32.46 |  2:49.46 |  47446 |  60166
      5 | 13:22.17 |  3:04.55 |  60167 |  74021
      6 | 16:26.72 |  3:37.20 |  74022 |  90316
      7 | 20:04.17 |  3:18.03 |  90317 | 105169
      8 | 23:22.20 |  4:02.41 | 105170 | 123360
      9 | 27:24.61 |  3:43.38 | 123361 | 140123
     10 | 31:08.24 |  3:26.41 | 140124 | 155614
     11 | 34:34.65 |  2:38.65 | 155615 | 167529
     12 | 37:13.55 |  2:56.25 | 167530 | 180754
     13 | 40:10.05 |  2:34.12 | 180755 | 192316
     14 | 42:44.17 |  4:41.25 | 192317 | 213416
     15 | 47:25.42 |  2:33.43 | 213417 | 224934
     16 | 49:59.10 |  3:28.62 | 224935 | 240596


范围状态及错误

已选择范围

     文件名 C:\Documents and Settings\Administrator\桌面\中国轻音乐Vol.7[创作篇]\中国轻音乐Vol.7[创作篇].wav

     峰值电平 97.7 %
     抓取速度 6.8 X
     范围质量 100.0 %
     复制 CRC B2C49835
     复制成功

没有错误发生

状态报告结尾

---- CUETools DB Plugin V2.1.4

[CTDB TOCID: kFm07pRKiZ5qdBFNt1Z6iEITfl8-] database access error: Pending

评分

参与人数 1威望 +8 金币 +16 贡献 +8 收起 理由
教官 + 8 + 16 + 8 很给力!

查看全部评分


数字音乐论坛 - 论坛版权1、本主题所有言论和图片纯属会员个人意见,与本论坛立场无关
2、本站所有主题由该帖子作者发表,该帖子作者与数字音乐论坛享有帖子相关版权
3、其他单位或个人使用、转载或引用本文时必须同时征得该帖子作者和数字音乐论坛的同意
4、帖子作者须承担一切因本文发表而直接或间接导致的民事或刑事法律责任
5、本帖部分内容转载自其它媒体,但并不代表本站赞同其观点和对其真实性负责
6、如本帖侵犯到任何版权问题,请立即告知本站,本站将及时予与删除并致以最深的歉意
7、数字音乐论坛管理员和版主有权不事先通知发贴者而删除本文

回复

使用道具 举报

签到天数: 235 天

[LV.7]常住居民III

50

主题

1099

帖子

7903

积分

高级会员

Rank: 4

积分
7903
威望
1463
金币
3541
贡献
337
沙发
发表于 2018-3-6 15:41:18 | 只看该作者
想不起来是谁说的相声?就这个声音,哈哈哈。 谢谢提供资源分享。
回复

使用道具 举报

签到天数: 489 天

[LV.9]以坛为家II

3

主题

647

帖子

1037

积分

新手上路

Rank: 1

积分
1037
威望
136
金币
118
贡献
0
板凳
发表于 2018-3-7 08:17:33 | 只看该作者
当年的回忆啊,谢谢大大的分享!
回复

使用道具 举报

签到天数: 147 天

[LV.7]常住居民III

88

主题

992

帖子

1万

积分

版主

Rank: 7Rank: 7Rank: 7

积分
11527
威望
1269
金币
7612
贡献
380

斑竹专用勋章

地板
发表于 2018-3-7 15:45:50 | 只看该作者
第7集中的《一把菜籽》是一首轻快、活泼、有特色的曲子。谢谢 asne 友制作分享!
回复

使用道具 举报

签到天数: 361 天

[LV.8]以坛为家I

1

主题

493

帖子

862

积分

新手上路

Rank: 1

积分
862
威望
105
金币
159
贡献
0
5#
发表于 2018-3-7 20:25:55 | 只看该作者
当年收音机里经常播放,很亲切。
回复

使用道具 举报

签到天数: 51 天

[LV.5]常住居民I

2

主题

158

帖子

423

积分

新手上路

Rank: 1

积分
423
威望
106
金币
53
贡献
0
6#
发表于 2018-3-7 23:44:22 | 只看该作者
這張是電聲音樂的演奏風格,80年代初流行一時
回复

使用道具 举报

签到天数: 9 天

[LV.3]偶尔看看II

1

主题

30

帖子

68

积分

新手上路

Rank: 1

积分
68
威望
19
金币
0
贡献
0
7#
发表于 2018-6-27 08:16:36 | 只看该作者
很有特色的曲子。谢谢 asne 友制作分享!
回复

使用道具 举报

签到天数: 516 天

[LV.9]以坛为家II

3

主题

627

帖子

1877

积分

新手上路

Rank: 1

积分
1877
威望
107
金币
1035
贡献
1
8#
发表于 2018-6-27 10:43:03 | 只看该作者
满满的都是回忆。收藏了!
回复

使用道具 举报

签到天数: 498 天

[LV.9]以坛为家II

16

主题

696

帖子

2071

积分

注册会员

Rank: 2

积分
2071
威望
201
金币
968
贡献
5
9#
发表于 2018-7-10 22:37:15 | 只看该作者
谢谢提供分享中国轻音乐7。很有特色的曲子。
回复

使用道具 举报

签到天数: 22 天

[LV.4]偶尔看看III

1

主题

49

帖子

153

积分

新手上路

Rank: 1

积分
153
威望
26
金币
52
贡献
0
10#
发表于 2019-2-13 20:13:47 | 只看该作者
很期待这一版的梅花三弄
回复

使用道具 举报

您需要登录后才可以回帖 登录 | 立即注册

本版积分规则

Archiver|手机版|小黑屋|数字音乐论坛 ( 津ICP备09009336号-1 )

GMT+8, 2019-8-21 00:16 , Processed in 0.406250 second(s), 52 queries .

Powered by Discuz! X3.4

© 2008-2019 上网要文明 发言要理性 本站禁灌水

快速回复 返回顶部 返回列表