开启辅助访问 天气预报 收藏本站

数字音乐论坛

 找回密码
 立即注册
快捷导航
查看: 394|回复: 26
打印 上一主题 下一主题

[梁洁-热线87][WAV/455MB][百度][免费]

[复制链接]

签到天数: 13 天

[LV.3]偶尔看看II

9

主题

24

帖子

1268

积分

新手上路

Rank: 1

积分
1268
威望
236
金币
665
贡献
107
跳转到指定楼层
楼主
发表于 2019-9-2 18:10:43 | 只看该作者 回帖奖励 |倒序浏览 |阅读模式
本帖最后由 小雷1987 于 2019-9-2 18:51 编辑



专辑:热线87
演唱:梁洁
编号:H-155
出版:云南音像出版社出版 云南广播电视公司发行

专辑曲目:
A面:
1 我在恋爱 试听:
[audio=1][/audio]
2 诺言
3 雾
4 爱情你我
5 我要告诉你
6 爱我就是爱我
7 经过他的门口

B面:
1 梦伴
2 爱的问号
3 什么是爱
4 如果你喜欢我
5 千百样
6 青梅竹马
7 你爱哪一朵


游客,如果您要查看本帖隐藏内容请回复


评分

参与人数 2威望 +53 金币 +48 贡献 +31 收起 理由
zjhjr + 8 + 16 + 8 很给力!
温古知新 + 45 + 32 + 23 很给力!

查看全部评分


数字音乐论坛 - 论坛版权1、本主题所有言论和图片纯属会员个人意见,与本论坛立场无关
2、本站所有主题由该帖子作者发表,该帖子作者与数字音乐论坛享有帖子相关版权
3、其他单位或个人使用、转载或引用本文时必须同时征得该帖子作者和数字音乐论坛的同意
4、帖子作者须承担一切因本文发表而直接或间接导致的民事或刑事法律责任
5、本帖部分内容转载自其它媒体,但并不代表本站赞同其观点和对其真实性负责
6、如本帖侵犯到任何版权问题,请立即告知本站,本站将及时予与删除并致以最深的歉意
7、数字音乐论坛管理员和版主有权不事先通知发贴者而删除本文

回复

使用道具 举报

签到天数: 490 天

[LV.9]以坛为家II

3

主题

832

帖子

1596

积分

新手上路

Rank: 1

积分
1596
威望
353
金币
52
贡献
6
沙发
发表于 2019-9-2 18:56:28 | 只看该作者
梁洁陌生歌手,试听喜欢,很不错,听出来一个味道…
回复

使用道具 举报

签到天数: 490 天

[LV.9]以坛为家II

3

主题

832

帖子

1596

积分

新手上路

Rank: 1

积分
1596
威望
353
金币
52
贡献
6
板凳
发表于 2019-9-2 19:45:25 | 只看该作者
PERFORMER "梁洁"
TITLE "热线87"
FILE "梁洁-热线87[云南音像].wav" WAVE
  TRACK 01 AUDIO
    TITLE "我在恋爱"
    PERFORMER "梁洁"
    INDEX 01 00:00:00
  TRACK 02 AUDIO
    TITLE "诺言"
    PERFORMER "梁洁"
    INDEX 01 02:39:58
  TRACK 03 AUDIO
    TITLE "雾"
    PERFORMER "梁洁"
    INDEX 01 07:19:18
  TRACK 04 AUDIO
    TITLE "爱情你我"
    PERFORMER "梁洁"
    INDEX 01 09:46:07
  TRACK 05 AUDIO
    TITLE "我要告诉你"
    PERFORMER "梁洁"
    INDEX 01 12:56:22
  TRACK 06 AUDIO
    TITLE "爱我就是爱我"
    PERFORMER "梁洁"
    INDEX 01 16:44:03
  TRACK 07 AUDIO
    TITLE "经过他的门口"
    PERFORMER "梁洁"
    INDEX 01 18:55:11
  TRACK 08 AUDIO
    TITLE "梦伴"
    PERFORMER "梁洁"
    INDEX 01 22:40:16
  TRACK 09 AUDIO
    TITLE "爱的问号"
    PERFORMER "梁洁"
    INDEX 01 25:58:58
  TRACK 10 AUDIO
    TITLE "什么是爱"
    PERFORMER "梁洁"
    INDEX 01 30:15:08
  TRACK 11 AUDIO
    TITLE "如果你喜欢我"
    PERFORMER "梁洁"
    INDEX 01 33:41:27
  TRACK 12 AUDIO
    TITLE "千百样"
    PERFORMER "梁洁"
    INDEX 01 36:36:29
  TRACK 13 AUDIO
    TITLE "青梅竹马"
    PERFORMER "梁洁"
    INDEX 01 39:52:06
  TRACK 14 AUDIO
    TITLE "你爱哪一朵"
    PERFORMER "梁洁"
    INDEX 01 42:47:56
回复

使用道具 举报

签到天数: 13 天

[LV.3]偶尔看看II

9

主题

24

帖子

1268

积分

新手上路

Rank: 1

积分
1268
威望
236
金币
665
贡献
107
地板
 楼主| 发表于 2019-9-2 19:52:52 | 只看该作者
kyk0416 发表于 2019-9-2 19:45
PERFORMER "梁洁"
TITLE "热线87"
FILE "梁洁-热线87[云南音像].wav" WAVE

我不会整CUE文件闲麻烦 录制完直接合并单文件了
回复

使用道具 举报

签到天数: 490 天

[LV.9]以坛为家II

3

主题

832

帖子

1596

积分

新手上路

Rank: 1

积分
1596
威望
353
金币
52
贡献
6
5#
发表于 2019-9-2 20:15:30 | 只看该作者
小雷1987 发表于 2019-9-2 19:52
我不会整CUE文件闲麻烦 录制完直接合并单文件了

你发的老歌真喜欢,辛苦了!
回复

使用道具 举报

签到天数: 192 天

[LV.7]常住居民III

2

主题

454

帖子

1216

积分

新手上路

Rank: 1

积分
1216
威望
255
金币
252
贡献
0
6#
发表于 2019-9-2 20:18:32 | 只看该作者
是一张翻唱专辑,有几首歌曲我很喜欢听,楼主辛苦上传。
回复

使用道具 举报

签到天数: 446 天

[LV.9]以坛为家II

2

主题

735

帖子

1868

积分

新手上路

Rank: 1

积分
1868
威望
282
金币
568
贡献
1
7#
发表于 2019-9-2 21:03:15 | 只看该作者
这张专辑很陌生。谢谢分享。
回复

使用道具 举报

签到天数: 523 天

[LV.9]以坛为家II

14

主题

911

帖子

2682

积分

注册会员

Rank: 2

积分
2682
威望
507
金币
679
贡献
78
8#
发表于 2019-9-2 21:54:36 | 只看该作者
注册不容易呀  来了就大手笔   谢谢
回复

使用道具 举报

签到天数: 605 天

[LV.9]以坛为家II

30

主题

2892

帖子

9352

积分

金牌会员

Rank: 6Rank: 6

积分
9352
威望
2122
金币
2144
贡献
72
9#
发表于 2019-9-3 00:14:39 | 只看该作者
当年云南音像出版社出了很多风靡一时的专辑,不过这个不熟悉
回复

使用道具 举报

签到天数: 588 天

[LV.9]以坛为家II

14

主题

1039

帖子

2444

积分

vip

Rank: 5Rank: 5

积分
2444
威望
633
金币
40
贡献
99
10#
发表于 2019-9-3 07:12:54 | 只看该作者
这盘不错,喜欢听,感谢制作分享,好歌不断。
回复

使用道具 举报

您需要登录后才可以回帖 登录 | 立即注册

本版积分规则

Archiver|手机版|小黑屋|数字音乐论坛 ( 津ICP备09009336号-1 )

GMT+8, 2019-9-21 19:07 , Processed in 0.312500 second(s), 49 queries .

Powered by Discuz! X3.4

© 2008-2019 上网要文明 发言要理性 本站禁灌水

快速回复 返回顶部 返回列表