开启辅助访问 天气预报 收藏本站

数字音乐论坛

 找回密码
 立即注册
快捷导航
查看: 177|回复: 13
打印 上一主题 下一主题

[金猪唱片《三味線-台語演奏精選5》裸片[APE][246MB/百度][祝东松生日快乐]

[复制链接]

签到天数: 39 天

[LV.5]常住居民I

58

主题

118

帖子

5729

积分

中级会员

Rank: 3Rank: 3

积分
5729
威望
550
金币
4412
贡献
99
跳转到指定楼层
楼主
发表于 7 天前 | 只看该作者 回帖奖励 |倒序浏览 |阅读模式


專輯名稱:三味線-台語演奏精選5
唱片編號:GPC-7802-2
圈內編碼:GPC-7802-5
專輯語種:演奏
發行公司:金豬唱片
製作軟體:EAC
採樣格式:ape整軌+cue
讀取模式:安全模式,光碟機具備有精確流選項,

曲目

01 懷念的播音員

02 請你信賴我
03 風流阿狗兄
04 再見南國
05 深情難捨
06 心所愛的人
07 為錢賭性命
08 上海莉露
09 落葉時雨
10 未了情
11 月夜情
12 離別之夜

游客,如果您要查看本帖隐藏内容请回复


提取码.rar (91 Bytes, 下载次数: 18, 售价: 20 金币)

评分

参与人数 1威望 +10 金币 +20 贡献 +10 收起 理由
东松 + 10 + 20 + 10

查看全部评分


数字音乐论坛 - 论坛版权1、本主题所有言论和图片纯属会员个人意见,与本论坛立场无关
2、本站所有主题由该帖子作者发表,该帖子作者与数字音乐论坛享有帖子相关版权
3、其他单位或个人使用、转载或引用本文时必须同时征得该帖子作者和数字音乐论坛的同意
4、帖子作者须承担一切因本文发表而直接或间接导致的民事或刑事法律责任
5、本帖部分内容转载自其它媒体,但并不代表本站赞同其观点和对其真实性负责
6、如本帖侵犯到任何版权问题,请立即告知本站,本站将及时予与删除并致以最深的歉意
7、数字音乐论坛管理员和版主有权不事先通知发贴者而删除本文

我新发布了帖子《[雷射吉它演奏2 - 典藏特辑][WAV+CUE][404MB/百度]》,快来围观吧!
回复

使用道具 举报

签到天数: 39 天

[LV.5]常住居民I

58

主题

118

帖子

5729

积分

中级会员

Rank: 3Rank: 3

积分
5729
威望
550
金币
4412
贡献
99
沙发
 楼主| 发表于 7 天前 | 只看该作者
Exact Audio Copy V0.99 prebeta 4 from 23. January 2008

EAC extraction logfile from 23. April 2012, 20:10

演奏 / 三味線-台語演奏精選5

Used drive  : ASUS    DRW-22B3S   Adapter: 1  ID: 1

Read mode               : Secure
Utilize accurate stream : Yes
Defeat audio cache      : Yes
Make use of C2 pointers : No

Read offset correction                      : 0
Overread into Lead-In and Lead-Out          : No
Fill up missing offset samples with silence : Yes
Delete leading and trailing silent blocks   : No
Null samples used in CRC calculations       : No
Used interface                              : Native Win32 interface for Win NT & 2000

Used output format : Monkey's Audio Lossless Encoder v3.99 DLL
Sample format      : High Lossless Compression


TOC of the extracted CD

     Track |   Start  |  Length  | Start sector | End sector
    ---------------------------------------------------------
        1  |  0:00.00 |  4:19.47 |         0    |    19471   
        2  |  4:19.47 |  3:07.20 |     19472    |    33516   
        3  |  7:26.67 |  2:58.58 |     33517    |    46924   
        4  | 10:25.50 |  3:55.40 |     46925    |    64589   
        5  | 14:21.15 |  2:56.32 |     64590    |    77821   
        6  | 17:17.47 |  3:43.73 |     77822    |    94619   
        7  | 21:01.45 |  3:41.45 |     94620    |   111239   
        8  | 24:43.15 |  3:46.45 |    111240    |   128234   
        9  | 28:29.60 |  3:19.67 |    128235    |   143226   
       10  | 31:49.52 |  3:53.55 |    143227    |   160756   
       11  | 35:43.32 |  2:55.73 |    160757    |   173954   
       12  | 38:39.30 |  3:23.47 |    173955    |   189226   


Range status and errors

Selected range

     Filename C:\CDImage.ape

     Peak level 100.0 %
     Range quality 99.9 %
     Copy CRC B5B825D9
     Copy OK

No errors occurred

End of status report
我新发布了帖子《[雷射吉它演奏2 - 典藏特辑][WAV+CUE][404MB/百度]》,快来围观吧!
回复

使用道具 举报

签到天数: 502 天

[LV.9]以坛为家II

13

主题

887

帖子

2538

积分

注册会员

Rank: 2

积分
2538
威望
487
金币
608
贡献
69
板凳
发表于 7 天前 | 只看该作者
这套三味线不错 很喜欢 谢谢分享
回复

使用道具 举报

签到天数: 342 天

[LV.8]以坛为家I

1

主题

491

帖子

1249

积分

新手上路

Rank: 1

积分
1249
威望
144
金币
470
贡献
0
地板
发表于 7 天前 | 只看该作者
继续支持三味线台语音乐 期待欣赏到更多这样的纯音乐 感谢!
回复

使用道具 举报

签到天数: 582 天

[LV.9]以坛为家II

59

主题

1270

帖子

1万

积分

论坛元老

Rank: 8Rank: 8

积分
10737
威望
1694
金币
5509
贡献
565

发帖高手勋章

5#
发表于 7 天前 | 只看该作者
前一集下载欣赏了,非常好听,音质很棒。
回复

使用道具 举报

签到天数: 563 天

[LV.9]以坛为家II

57

主题

847

帖子

8957

积分

金牌会员

Rank: 6Rank: 6

积分
8957
威望
885
金币
6101
贡献
239
6#
发表于 7 天前 | 只看该作者
这套三味线有几张?谢谢了
回复

使用道具 举报

签到天数: 256 天

[LV.8]以坛为家I

4

主题

282

帖子

3041

积分

超级版主

Rank: 8Rank: 8

积分
3041
威望
75
金币
2582
贡献
27

优秀版主荣誉管理

7#
发表于 7 天前 | 只看该作者
谢谢小米米朋友的生日祝福!
回复

使用道具 举报

签到天数: 275 天

[LV.8]以坛为家I

1

主题

365

帖子

548

积分

新手上路

Rank: 1

积分
548
威望
69
金币
65
贡献
-20
8#
发表于 7 天前 | 只看该作者
很喜欢 谢谢分享
我新发布了帖子《大家好》,快来围观吧!
回复

使用道具 举报

签到天数: 300 天

[LV.8]以坛为家I

1

主题

445

帖子

1121

积分

新手上路

Rank: 1

积分
1121
威望
141
金币
394
贡献
0
9#
发表于 6 天前 | 只看该作者
台语精典歌曲,三味线主奏,谢谢分享!
回复

使用道具 举报

签到天数: 498 天

[LV.9]以坛为家II

16

主题

696

帖子

2071

积分

注册会员

Rank: 2

积分
2071
威望
201
金币
968
贡献
5
10#
发表于 6 天前 | 只看该作者

这套三味线1-4不错 很喜欢 谢谢分享三味線5
回复

使用道具 举报

您需要登录后才可以回帖 登录 | 立即注册

本版积分规则

Archiver|手机版|小黑屋|数字音乐论坛 ( 津ICP备09009336号-1 )

GMT+8, 2019-8-20 23:55 , Processed in 0.328125 second(s), 56 queries .

Powered by Discuz! X3.4

© 2008-2019 上网要文明 发言要理性 本站禁灌水

快速回复 返回顶部 返回列表